找回密码
 立即注册
快捷导航
发帖
飘盘 聊天 资讯 萌图 漫画 动画 规则 帮助 手机客户端 新手指南
查看: 281|回复: 25

[问题求助] MKV抽取的音轨少咗三秒

[复制链接]

签到天数: 411 天

[LV.9]以坛为家II

42

主题

12

好友

3327

积分

风之精灵LV.2

Rank: 13Rank: 13Rank: 13

帖子
2492
雪点
9884
阅读权限
80
性别
在线时间
633 小时
注册时间
2015-10-31
最后登录
2019-9-18
发表于 2019-8-14 13:31:29 | 显示全部楼层 |阅读模式
视频係HEVC编码,音频係AC3,下载整个MKV落来播放冇乜问题,但系抽条音出来個AC3就会少3秒。然后将条音同视频再封装就音画不同步。
求大神相助,唔知係唔係帧速率变咗,但系抽取过程应该唔会影响呢个吧

签到天数: 1030 天

[LV.10]以坛为家III

109

主题

28

好友

8341

积分

风之精灵LV.3

该用户禁止访问论坛

Rank: 15Rank: 15Rank: 15

帖子
2792
雪点
67831
阅读权限
90
性别
在线时间
1125 小时
注册时间
2014-3-23
最后登录
2019-9-18
发表于 2019-8-14 13:40:19 | 显示全部楼层
可能条音轨封装既时候就加左延时参数
回复 支持 反对

使用道具 举报

签到天数: 411 天

[LV.9]以坛为家II

42

主题

12

好友

3327

积分

风之精灵LV.2

Rank: 13Rank: 13Rank: 13

帖子
2492
雪点
9884
阅读权限
80
性别
在线时间
633 小时
注册时间
2015-10-31
最后登录
2019-9-18
 楼主| 发表于 2019-8-14 13:46:42 | 显示全部楼层
feijiaa1 发表于 2019-8-14 13:40
可能条音轨封装既时候就加左延时参数

有冇咩办法可以知道延迟咗几多?
回复 支持 反对

使用道具 举报

签到天数: 1030 天

[LV.10]以坛为家III

109

主题

28

好友

8341

积分

风之精灵LV.3

该用户禁止访问论坛

Rank: 15Rank: 15Rank: 15

帖子
2792
雪点
67831
阅读权限
90
性别
在线时间
1125 小时
注册时间
2014-3-23
最后登录
2019-9-18
发表于 2019-8-14 13:57:22 | 显示全部楼层
如果用新版本MKV封装,用potplayer播放的时候,查看文件属性可以睇到。
回复 支持 反对

使用道具 举报

签到天数: 411 天

[LV.9]以坛为家II

42

主题

12

好友

3327

积分

风之精灵LV.2

Rank: 13Rank: 13Rank: 13

帖子
2492
雪点
9884
阅读权限
80
性别
在线时间
633 小时
注册时间
2015-10-31
最后登录
2019-9-18
 楼主| 发表于 2019-8-14 14:34:50 | 显示全部楼层
feijiaa1 发表于 2019-8-14 13:57
如果用新版本MKV封装,用potplayer播放的时候,查看文件属性可以睇到。

General
Unique ID                      : 231810513412880590381059303555009825492 (0xAE6514B735CA6798F6D7420926DB4AD4)
Complete name                  : E:\Download And Handle\190814柯南\主视频.mkv
Format                         : Matroska
Format version                 : Version 4
File size                      : 1.06 GiB
Duration                       : 1 h 50 min
Overall bit rate               : 1 372 kb/s
Encoded date                   : UTC 2019-01-26 22:08:44 / UTC 2018-12-21T20:03:19Z
Writing application            : mkvmerge v28.1.0 ('Morning Child') 64-bit
Writing library                : libebml v1.3.6 + libmatroska v1.4.9 / Lavf57.7.2

Video
ID                             : 1
Format                         : HEVC
Format/Info                    : High Efficiency Video Coding
Format profile                 : Main 10@L4@Main
Codec ID                       : V_MPEGH/ISO/HEVC
Duration                       : 1 h 50 min
Bit rate                       : 1 153 kb/s
Width                          : 1 920 pixels
Height                         : 1 080 pixels
Display aspect ratio           : 16:9
Frame rate mode                : Constant
Frame rate                     : 23.976 (24000/1001) FPS
Color space                    : YUV
Chroma subsampling             : 4:2:0
Bit depth                      : 10 bits
Bits/(Pixel*Frame)             : 0.023
Stream size                    : 909 MiB (84%)
Writing library                : x265 2.6:[Windows][GCC 7.3.0][64 bit] 10bit
Encoding settings              : cpuid=1173503 / frame-threads=4 / numa-pools=16 / wpp / no-pmode / no-pme / no-psnr / no-ssim / log-level=2 / input-csp=1 / input-res=1920x1080 / interlace=0 / total-frames=0 / level-idc=0 / high-tier=1 / uhd-bd=0 / ref=3 / no-allow-non-conformance / no-repeat-headers / annexb / no-aud / no-hrd / info / hash=0 / no-temporal-layers / open-gop / min-keyint=24 / keyint=240 / bframes=4 / b-adapt=2 / b-pyramid / bframe-bias=0 / rc-lookahead=20 / lookahead-slices=6 / scenecut=40 / no-intra-refresh / ctu=64 / min-cu-size=8 / no-rect / no-amp / max-tu-size=32 / tu-inter-depth=1 / tu-intra-depth=1 / limit-tu=0 / rdoq-level=0 / dynamic-rd=0.00 / no-ssim-rd / signhide / no-tskip / nr-intra=0 / nr-inter=0 / no-constrained-intra / strong-intra-smoothing / max-merge=2 / limit-refs=3 / no-limit-modes / me=1 / subme=2 / merange=57 / temporal-mvp / weightp / no-weightb / no-analyze-src-pics / deblock=0:0 / no-sao / no-sao-non-deblock / rd=3 / no-early-skip / rskip / no-fast-intra / no-tskip-fast / no-cu-lossless / no-b-intra / no-splitrd-skip / rdpenalty=0 / psy-rd=2.00 / psy-rdoq=0.00 / no-rd-refine / analysis-reuse-mode=0 / no-lossless / cbqpoffs=0 / crqpoffs=0 / rc=crf / crf=23.0 / qcomp=0.60 / qpstep=4 / stats-write=0 / stats-read=0 / ipratio=1.40 / pbratio=1.30 / aq-mode=1 / aq-strength=1.00 / cutree / zone-count=0 / no-strict-cbr / qg-size=32 / no-rc-grain / qpmax=69 / qpmin=0 / no-const-vbv / sar=1 / overscan=0 / videoformat=5 / range=0 / colorprim=1 / transfer=1 / colormatrix=1 / chromaloc=0 / display-window=0 / max-cll=0,0 / min-luma=0 / max-luma=1023 / log2-max-poc-lsb=8 / vui-timing-info / vui-hrd-info / slices=1 / no-opt-qp-pps / no-opt-ref-list-length-pps / no-multi-pass-opt-rps / scenecut-bias=0.05 / no-opt-cu-delta-qp / no-aq-motion / no-hdr / no-hdr-opt / no-dhdr10-opt / analysis-reuse-level=5 / scale-factor=0 / refine-intra=0 / refine-inter=0 / refine-mv=0 / no-limit-sao / ctu-info=0 / no-lowpass-dct / refine-mv-type=0 / copy-pic=1
Default                        : Yes
Forced                         : No
Color range                    : Limited
Color primaries                : BT.709
Transfer characteristics       : BT.709
Matrix coefficients            : BT.709
Statistics Tags Issue          : mkvmerge v28.1.0 ('Morning Child') 64-bit 2019-01-26 22:08:44 / mkvmerge v28.1.0 ('Morning Child') 64-bit 2019-01-26 22:08:44 / UTC 2018-12-21T20:03:19Z
FromStats_BitRate              : 1174975
FromStats_Duration             : 01:50:15.609000000
FromStats_FrameCount           : 158616
FromStats_StreamSize           : 971647432

Audio
ID                             : 2
Format                         : AC-3
Format/Info                    : Audio Coding 3
Commercial name                : Dolby Digital
Codec ID                       : A_AC3
Duration                       : 1 h 50 min
Bit rate mode                  : Constant
Bit rate                       : 192 kb/s
Channel(s)                     : 2 channels
Channel layout                 : L R
Sampling rate                  : 48.0 kHz
Frame rate                     : 31.250 FPS (1536 SPF)
Bit depth                      : 16 bits
Compression mode               : Lossy
Delay relative to video        : 2 s 0 ms
Stream size                    : 151 MiB (14%)
Service kind                   : Complete Main
Default                        : Yes
Forced                         : No
Statistics Tags Issue          : mkvmerge v28.1.0 ('Morning Child') 64-bit 2019-01-26 22:08:44 / mkvmerge v28.1.0 ('Morning Child') 64-bit 2019-01-26 22:08:44 / UTC 2018-12-21T20:03:19Z
FromStats_BitRate              : 192000
FromStats_Duration             : 01:50:12.576000000
FromStats_FrameCount           : 206643
FromStats_StreamSize           : 158701824

Text
ID                             : 3
Format                         : VobSub
Muxing mode                    : zlib
Codec ID                       : S_VOBSUB
Codec ID/Info                  : Picture based subtitle format used on DVDs
Default                        : Yes
Forced                         : No
Statistics Tags Issue          : mkvmerge v28.1.0 ('Morning Child') 64-bit 2019-01-26 22:08:44 / mkvmerge v28.1.0 ('Morning Child') 64-bit 2019-01-26 22:08:44 / UTC 2018-12-21T20:03:19Z
FromStats_BitRate              : 6247
FromStats_Duration             : 01:49:35.770000000
FromStats_FrameCount           : 1954
FromStats_StreamSize           : 5135212


好似冇发现乜嘢延迟参数之类嘅嘢
回复 支持 反对

使用道具 举报

签到天数: 1932 天

[LV.Master]伴坛终老

711

主题

6

好友

3万

积分

超级版主

Rank: 25Rank: 25Rank: 25Rank: 25Rank: 25

帖子
29987
雪点
9612
阅读权限
250
在线时间
4584 小时
注册时间
2013-11-20
最后登录
2019-9-19
发表于 2019-8-14 14:53:09 | 显示全部楼层
Delay relative to video        : 2 s 0 ms
延迟 2 秒

通常經過壓片後都有2-3秒延迟, 所以壓片時要連聲道一起壓制, 如果不壓制聲道, 是可以直接抽取聲道, 用MKVTOOL 時再加入延迟也可以

有聲 無畫面, 出不了字幕, 以下的可以
potplayer download link ->  https://potplayer.daum.net/?lang=zh_TW
MPC download link -> http://www.free-codecs.com/k_lite_codec_pack_download.htm
回复 支持 反对

使用道具 举报

签到天数: 2387 天

[LV.Master]伴坛终老

13

主题

0

好友

6万

积分

精灵王

Rank: 17Rank: 17Rank: 17Rank: 17Rank: 17

帖子
63836
雪点
30
阅读权限
130
性别
保密
在线时间
6756 小时
注册时间
2012-9-30
最后登录
2019-9-19
发表于 2019-8-14 15:20:38 | 显示全部楼层
wai008 发表于 2019-8-14 14:53
Delay relative to video        : 2 s 0 ms
延迟 2 秒

試過壓片後,用舊版MKVTOOL封TS的音軌入去,就有delay,如果用新版MKVTOOL就沒有事
飘雪动漫社★缤纷动漫☆创意未来!
回复 支持 反对

使用道具 举报

签到天数: 1932 天

[LV.Master]伴坛终老

711

主题

6

好友

3万

积分

超级版主

Rank: 25Rank: 25Rank: 25Rank: 25Rank: 25

帖子
29987
雪点
9612
阅读权限
250
在线时间
4584 小时
注册时间
2013-11-20
最后登录
2019-9-19
发表于 2019-8-14 16:08:39 | 显示全部楼层
stevencif 发表于 2019-8-14 15:20
試過壓片後,用舊版MKVTOOL封TS的音軌入去,就有delay,如果用新版MKVTOOL就沒有事

新版MKVTOOL, 是那一個版本

有聲 無畫面, 出不了字幕, 以下的可以
potplayer download link ->  https://potplayer.daum.net/?lang=zh_TW
MPC download link -> http://www.free-codecs.com/k_lite_codec_pack_download.htm
回复 支持 反对

使用道具 举报

签到天数: 2387 天

[LV.Master]伴坛终老

13

主题

0

好友

6万

积分

精灵王

Rank: 17Rank: 17Rank: 17Rank: 17Rank: 17

帖子
63836
雪点
30
阅读权限
130
性别
保密
在线时间
6756 小时
注册时间
2012-9-30
最后登录
2019-9-19
发表于 2019-8-14 18:49:27 | 显示全部楼层
wai008 发表于 2019-8-14 16:08
新版MKVTOOL, 是那一個版本

以前的5.3.0 有delay,轉用9.8.0就沒有delay,現在用v35
飘雪动漫社★缤纷动漫☆创意未来!
回复 支持 反对

使用道具 举报

签到天数: 1932 天

[LV.Master]伴坛终老

711

主题

6

好友

3万

积分

超级版主

Rank: 25Rank: 25Rank: 25Rank: 25Rank: 25

帖子
29987
雪点
9612
阅读权限
250
在线时间
4584 小时
注册时间
2013-11-20
最后登录
2019-9-19
发表于 2019-8-14 19:07:44 | 显示全部楼层
stevencif 发表于 2019-8-14 18:49
以前的5.3.0 有delay,轉用9.8.0就沒有delay,現在用v35

那是陳年舊事啊

有聲 無畫面, 出不了字幕, 以下的可以
potplayer download link ->  https://potplayer.daum.net/?lang=zh_TW
MPC download link -> http://www.free-codecs.com/k_lite_codec_pack_download.htm
回复 支持 反对

使用道具 举报

您需要登录后才可以回帖 登录 | 立即注册

本版积分规则

下载客户端
安卓客户端 IOS客户端

快来加入我们吧!!

官方QQ群号

飘雪动漫社

Powered by Discuz! X3.4© 2001-2019 Comsenz Inc.

手机版| 小黑屋| Archiver| 粤梦缘

GMT+8, 2019-9-19 03:03 , Processed in 0.107063 second(s), 37 queries , MemCache On.