找回密码
 立即注册
快捷导航
发帖
飘盘 聊天 资讯 萌图 漫画 动画 规则 帮助 手机客户端 新手指南
查看: 278|回复: 22

[飘雪网盘] [原創]机动战士高达SEED DESTINY 特别篇/总集篇[1-4全]

  [复制链接]

签到天数: 904 天

[LV.10]以坛为家III

 成长值: 1755

22

主题

0

好友

3607

积分

贵宾

Rank: 25Rank: 25Rank: 25Rank: 25Rank: 25

帖子
2575
雪点
12436
阅读权限
150
性别
在线时间
1043 小时
注册时间
2016-3-13
最后登录
2019-9-18
发表于 2019-9-2 21:20:20 | 显示全部楼层 |阅读模式
【影片名称】机动战士高达SEED DESTINY 特别篇/总集篇(1-4)
【影片集数】版本1[704x396]:4集,版本2[1024x576]:3集
【影片格式】DVD-MKV,版本1采用漫游字幕组的704x396片源,版本2采用Temporary Worker的1024x576片源
【影片大小】版本1约:1GB/集,版本2约:3GB/集
【影片语言】粤日双语,粤语:384K(抽出来就系384K),AC3;日语:片源自带;详见下面的版本信息。
【字幕语言】版本1片源自带内嵌简体中文,版本2使用漫游字幕组的简/繁ass中文字幕
【影片来源】漫游字幕组及nyaa
【音频来源】本坛kenneth兄分享的DVD原盘(地址:https://www.dotmu.net/forum.php? ... p;highlight=DESTINY
【音频校对】原创
【网络空间】飘盘(如买的话,请睇清楚这里,吃币不吐的)
【死档日期】难讲,睇心情
【其  他】版本1[704x396]嘎片源系收咗好耐,一直无收到粤语音轨,所以今次派上用场了!版本2[1024x576]系前段时间稳嘎,down翻来,都几嗮时间!
【简  介】应该都唔使点简介啦挂!
【特别说明】合成方面就睇下波形,口形,跟住手起刀落,一刀,搞定!我无再替换ED,感觉听起来足够了,无合版本2[1024x576]的第一集,因为kristos兄之前已经合咗(地址:https://www.dotmu.net/forum.php? ... p;highlight=DESTINY)有需求嘎同学,就直接买他的,他用的片源应该都是Temporary Worker版的,因为在49分32秒都有一帧花瓶如下图。

等有时间嘎话,处理下这个小瑕疵先再合啰。

版本1信息:
  1. Video
  2. ID                             : 1
  3. Format                         : AVC
  4. Format/Info                    : Advanced Video Codec
  5. Format profile                 : High@L5.1
  6. Format settings                : CABAC / 16 Ref Frames
  7. Format settings, CABAC         : Yes
  8. Format settings, Reference fra : 16 frames
  9. Codec ID                       : V_MPEG4/ISO/AVC
  10. Duration                       : 1 h 32 min
  11. Bit rate                       : 927 kb/s
  12. Width                          : 704 pixels
  13. Height                         : 396 pixels
  14. Display aspect ratio           : 16:9
  15. Frame rate mode                : Constant
  16. Frame rate                     : 23.976 (24000/1001) FPS
  17. Color space                    : YUV
  18. Chroma subsampling             : 4:2:0
  19. Bit depth                      : 8 bits
  20. Scan type                      : Progressive
  21. Bits/(Pixel*Frame)             : 0.139
  22. Stream size                    : 614 MiB (64%)
  23. Writing library                : x264 core 54 svn-635M
  24. Encoding settings              : cabac=1 / ref=16 / deblock=1:1:1 / analyse=0x3:0x133 / me=umh / subme=7 / brdo=1 / mixed_ref=1 / me_range=16 / chroma_me=1 / trellis=2 / 8x8dct=1 / cqm=0 / deadzone=21,11 / chroma_qp_offset=0 / threads=1 / nr=0 / decimate=1 / mbaff=0 / bframes=3 / b_pyramid=1 / b_adapt=1 / b_bias=0 / direct=3 / wpredb=1 / bime=1 / keyint=250 / keyint_min=25 / scenecut=40 / rc=2pass / bitrate=927 / ratetol=1.0 / rceq='blurCplx^(1-qComp)' / qcomp=0.60 / qpmin=10 / qpmax=51 / qpstep=4 / cplxblur=20.0 / qblur=0.5 / ip_ratio=1.40 / pb_ratio=1.30
  25. Language                       : Japanese
  26. Default                        : Yes
  27. Forced                         : No

  28. Audio #1
  29. ID                             : 2
  30. Format                         : AC-3
  31. Format/Info                    : Audio Coding 3
  32. Commercial name                : Dolby Digital
  33. Codec ID                       : A_AC3
  34. Duration                       : 1 h 32 min
  35. Bit rate mode                  : Constant
  36. Bit rate                       : 384 kb/s
  37. Channel(s)                     : 2 channels
  38. Channel layout                 : L R
  39. Sampling rate                  : 48.0 kHz
  40. Frame rate                     : 31.250 FPS (1536 SPF)
  41. Bit depth                      : 16 bits
  42. Compression mode               : Lossy
  43. Stream size                    : 254 MiB (27%)
  44. Title                          : 亞洲影帶(HK)DVD粤语,384K,AC3
  45. Language                       : Chinese
  46. Service kind                   : Complete Main
  47. Default                        : Yes
  48. Forced                         : No

  49. Audio #2
  50. ID                             : 3
  51. Format                         : AAC LC
  52. Format/Info                    : Advanced Audio Codec Low Complexity
  53. Codec ID                       : A_AAC-2
  54. Duration                       : 1 h 32 min
  55. Bit rate                       : 128 kb/s
  56. Channel(s)                     : 2 channels
  57. Channel layout                 : L R
  58. Sampling rate                  : 48.0 kHz
  59. Frame rate                     : 46.875 FPS (1024 SPF)
  60. Compression mode               : Lossy
  61. Stream size                    : 85.1 MiB (9%)
  62. Title                          : 片源自带日语AAC
  63. Language                       : Japanese
  64. Default                        : No
  65. Forced                         : No
复制代码



版本2信息:
  1. Video
  2. ID                             : 1
  3. Format                         : AVC
  4. Format/Info                    : Advanced Video Codec
  5. Format profile                 : High@L4.1
  6. Format settings                : CABAC / 14 Ref Frames
  7. Format settings, CABAC         : Yes
  8. Format settings, Reference fra : 14 frames
  9. Codec ID                       : V_MPEG4/ISO/AVC
  10. Duration                       : 1 h 32 min
  11. Bit rate                       : 3 344 kb/s
  12. Width                          : 1 024 pixels
  13. Height                         : 576 pixels
  14. Display aspect ratio           : 16:9
  15. Frame rate mode                : Constant
  16. Frame rate                     : 23.976 (24000/1001) FPS
  17. Color space                    : YUV
  18. Chroma subsampling             : 4:2:0
  19. Bit depth                      : 8 bits
  20. Scan type                      : Progressive
  21. Bits/(Pixel*Frame)             : 0.236
  22. Stream size                    : 2.16 GiB (80%)
  23. Writing library                : x264 core 125 r2200 999b753
  24. Encoding settings              : cabac=1 / ref=14 / deblock=1:1:2 / analyse=0x3:0x133 / me=umh / subme=9 / psy=1 / psy_rd=0.80:0.00 / mixed_ref=1 / me_range=32 / chroma_me=1 / trellis=0 / 8x8dct=1 / cqm=0 / deadzone=21,11 / fast_pskip=0 / chroma_qp_offset=-2 / threads=12 / lookahead_threads=2 / sliced_threads=0 / nr=0 / decimate=1 / interlaced=0 / bluray_compat=0 / constrained_intra=0 / bframes=16 / b_pyramid=2 / b_adapt=2 / b_bias=0 / direct=1 / weightb=1 / open_gop=0 / weightp=2 / keyint=240 / keyint_min=23 / scenecut=40 / intra_refresh=0 / rc_lookahead=240 / rc=crf / mbtree=1 / crf=14.0 / qcomp=0.70 / qpmin=0 / qpmax=69 / qpstep=4 / ip_ratio=1.40 / aq=1:1.30
  25. Language                       : Japanese
  26. Default                        : Yes
  27. Forced                         : No
  28. Color range                    : Limited
  29. Color primaries                : BT.601 PAL
  30. Transfer characteristics       : BT.470 System B/G
  31. Matrix coefficients            : BT.470 System B/G

  32. Audio #1
  33. ID                             : 2
  34. Format                         : AC-3
  35. Format/Info                    : Audio Coding 3
  36. Commercial name                : Dolby Digital
  37. Codec ID                       : A_AC3
  38. Duration                       : 1 h 32 min
  39. Bit rate mode                  : Constant
  40. Bit rate                       : 384 kb/s
  41. Channel(s)                     : 2 channels
  42. Channel layout                 : L R
  43. Sampling rate                  : 48.0 kHz
  44. Frame rate                     : 31.250 FPS (1536 SPF)
  45. Bit depth                      : 16 bits
  46. Compression mode               : Lossy
  47. Stream size                    : 254 MiB (9%)
  48. Title                          : 亞洲影帶(HK)DVD粤语,384K,AC3
  49. Language                       : Chinese
  50. Service kind                   : Complete Main
  51. Default                        : Yes
  52. Forced                         : No

  53. Audio #2
  54. ID                             : 3
  55. Format                         : AC-3
  56. Format/Info                    : Audio Coding 3
  57. Commercial name                : Dolby Digital
  58. Codec ID                       : A_AC3
  59. Duration                       : 1 h 32 min
  60. Bit rate mode                  : Constant
  61. Bit rate                       : 448 kb/s
  62. Channel(s)                     : 2 channels
  63. Channel layout                 : L R
  64. Sampling rate                  : 48.0 kHz
  65. Frame rate                     : 31.250 FPS (1536 SPF)
  66. Bit depth                      : 16 bits
  67. Compression mode               : Lossy
  68. Stream size                    : 296 MiB (11%)
  69. Title                          : 片源自带日语AC3
  70. Language                       : Japanese
  71. Service kind                   : Complete Main
  72. Default                        : No
  73. Forced                         : No

  74. Text #1
  75. ID                             : 4
  76. Format                         : ASS
  77. Codec ID                       : S_TEXT/ASS
  78. Codec ID/Info                  : Advanced Sub Station Alpha
  79. Duration                       : 1 h 32 min
  80. Bit rate                       : 109 b/s
  81. Count of elements              : 1159
  82. Compression mode               : Lossless
  83. Stream size                    : 74.0 KiB (0%)
  84. Title                          : 简体中文字幕
  85. Language                       : Chinese
  86. Default                        : Yes
  87. Forced                         : No

  88. Text #2
  89. ID                             : 5
  90. Format                         : ASS
  91. Codec ID                       : S_TEXT/ASS
  92. Codec ID/Info                  : Advanced Sub Station Alpha
  93. Duration                       : 1 h 32 min
  94. Bit rate                       : 109 b/s
  95. Count of elements              : 1159
  96. Compression mode               : Lossless
  97. Stream size                    : 74.0 KiB (0%)
  98. Title                          : 繁体中文字幕
  99. Language                       : Chinese
  100. Default                        : No
  101. Forced                         : No
复制代码





严禁转载/分享/上传至任何视频等其他网站,如有发现 即立刻永久刪除


【下载地址】=40/集

版本1[704x396]带恢复记录:共4集


版本2[1024x576]带恢复记录:共3集(2至4)


本帖子中包含更多资源

您需要 登录 才可以下载或查看,没有帐号?立即注册

x

评分

参与人数 1冰点 +8 雪点 +88 收起 理由
chrisrex + 8 + 88 我很赞同

查看全部评分

飘雪动漫社★缤纷动漫☆创意未来!

签到天数: 1258 天

[LV.10]以坛为家III

1

主题

0

好友

1010

积分

土之精灵LV.3

Rank: 7Rank: 7Rank: 7

帖子
813
雪点
2393
阅读权限
60
性别
保密
在线时间
410 小时
注册时间
2012-12-13
最后登录
2019-9-18
发表于 2019-9-2 22:05:09 | 显示全部楼层
又一好卡通啊,支持
飘雪动漫社★缤纷动漫☆创意未来!
回复 支持 反对

使用道具 举报

签到天数: 568 天

[LV.9]以坛为家II

 成长值: 9945

10

主题

0

好友

1084

积分

贵宾

Rank: 25Rank: 25Rank: 25Rank: 25Rank: 25

帖子
319
雪点
9475
阅读权限
150
性别
保密
在线时间
420 小时
注册时间
2017-12-11
最后登录
2019-9-18
发表于 2019-9-2 22:54:43 | 显示全部楼层
最近补紧seed~睇下呢个DVD配音先
飘雪动漫社★缤纷动漫☆创意未来!
回复 支持 反对

使用道具 举报

签到天数: 1779 天

[LV.Master]伴坛终老

99

主题

7

好友

2万

积分

炎之精灵LV.3

Rank: 17Rank: 17Rank: 17Rank: 17Rank: 17

帖子
24422
雪点
11440
阅读权限
120
性别
保密
在线时间
2597 小时
注册时间
2014-4-6
最后登录
2019-9-18
发表于 2019-9-2 23:03:12 | 显示全部楼层
喜欢高达,支持下!
飘雪动漫社★缤纷动漫☆创意未来!
回复 支持 反对

使用道具 举报

签到天数: 2279 天

[LV.Master]伴坛终老

18

主题

23

好友

1万

积分

炎之精灵LV.2

Rank: 17Rank: 17Rank: 17Rank: 17Rank: 17

帖子
12470
雪点
78157
阅读权限
110
在线时间
3060 小时
注册时间
2012-7-1
最后登录
2019-9-18
发表于 2019-9-3 01:34:00 | 显示全部楼层
多谢分享原盘高达SEED资源,值得再次去重温。
飘雪动漫社★缤纷动漫☆创意未来!
回复 支持 反对

使用道具 举报

签到天数: 28 天

[LV.4]偶尔看看III

124

主题

4

好友

2896

积分

风之精灵LV.1

粤语动画拾荒者

Rank: 8Rank: 8Rank: 8Rank: 8

帖子
2541
雪点
2388
阅读权限
70
性别
在线时间
765 小时
注册时间
2012-8-21
最后登录
2019-9-18
发表于 2019-9-3 01:56:26 | 显示全部楼层
甘久遠的。 真唔記得D劇情了。 我只想知有無咩刪減?!  都唔記得當年自己收藏系邊個版本了。翻下D舊野及及先再黎過。
粤语是我的收藏标的!!
回复 支持 反对

使用道具 举报

签到天数: 1801 天

[LV.Master]伴坛终老

551

主题

57

好友

9万

积分

精灵王

Rank: 17Rank: 17Rank: 17Rank: 17Rank: 17

帖子
95431
雪点
1598
阅读权限
130
在线时间
11557 小时
注册时间
2014-5-26
最后登录
2019-9-18
发表于 2019-9-3 03:13:04 | 显示全部楼层
多謝分享高達嘅特別篇同總集篇啊
回复 支持 反对

使用道具 举报

签到天数: 118 天

[LV.6]常住居民II

100

主题

9

好友

1万

积分

炎之精灵LV.1

Rank: 17Rank: 17Rank: 17Rank: 17Rank: 17

帖子
10148
雪点
1172
阅读权限
100
性别
保密
在线时间
368 小时
注册时间
2017-6-2
最后登录
2019-9-17

彭格列黑手党

发表于 2019-9-3 04:02:50 | 显示全部楼层
谢谢啦,那个画面的瑕疵是不是合成时出了什么问题,看来你要再编辑一下
飘雪动漫社★缤纷动漫☆创意未来!
回复 支持 反对

使用道具 举报

签到天数: 1647 天

[LV.Master]伴坛终老

9

主题

21

好友

5万

积分

精灵王

Rank: 17Rank: 17Rank: 17Rank: 17Rank: 17

帖子
53262
雪点
4981
阅读权限
130
性别
在线时间
2156 小时
注册时间
2014-12-1
最后登录
2019-9-18
发表于 2019-9-3 06:42:31 | 显示全部楼层
特別編好似未睇過喎...謝謝先啊~~~~
......
回复 支持 反对

使用道具 举报

签到天数: 1316 天

[LV.10]以坛为家III

18

主题

13

好友

5366

积分

风之精灵LV.2

Rank: 13Rank: 13Rank: 13

帖子
4506
雪点
10339
阅读权限
80
性别
在线时间
1268 小时
注册时间
2014-11-6
最后登录
2019-9-18

捐助会员

发表于 2019-9-3 09:17:59 | 显示全部楼层
SEED系列真的很好看~~~~谢谢分享
回复 支持 反对

使用道具 举报

您需要登录后才可以回帖 登录 | 立即注册

本版积分规则

下载客户端
安卓客户端 IOS客户端

快来加入我们吧!!

官方QQ群号

飘雪动漫社

Powered by Discuz! X3.4© 2001-2019 Comsenz Inc.

手机版| 小黑屋| Archiver| 粤梦缘

GMT+8, 2019-9-18 10:15 , Processed in 0.114494 second(s), 39 queries , MemCache On.